The Stolen Princess Ruslan and Ludmila Dual Audio Hindi + English Dubbed Full Movie Download 720p HD WEB-DL Quality Encoded In x264 With English Subtitles.

The Stolen Princess Ruslan and Ludmila Dual Audio Hindi Dubbed 720p, English Subtitles

Details Of Full Length Free Videos

Title: The Stolen Princess Ruslan and Ludmila 2018
Genres: Animation | Comedy | Fantasy
Country: Ukraine
Language: Hindi | English
Release Date: 2019 (USA)
Quality: 720p WEB-DL x264
Subtitles: English
Audio: 2.0CH
Format: MKV
Size: 895-MB

IMDb

Storyline

The Stolen Princess Ruslan and Ludmila Full Movie Download In Hindi 720p HD Two sorcerers, Finn and Shernomore, have an intense magical duel in favor of saving Finn’s wife, Meena. Finn gains the upperhand at first, but is defeated by Shernomore who deceives him by stepping on a “force field”, and losing all of his powers and youthfullness, The Stolen Princess Ruslan and Ludmila English Subtitles Download which then transfers to Shernomore and transforms Meena into a stone statue in exchange for her power of love as a source of his magic.

In the present day, Ruslan, a wandering artist dreaming to become a knight, is having a small play which he plays the role of Finn and Shernomore, and is written by an eccentric and an aspiring playwright, Lester. In the castle lived a adventurous and kind princess named Meelah. She considers the castle as a hindrance for his father and the King, is forcing her to get married despite she doesn’t love whoever he suggests. One night, she sneaks out and she was almost harrased by two men, until Ruslan arrives. He saves Meelah from the two and escape. When the two are alone, Ruslan, afraid of being judged by his status, disguises himself as a knight.

The next day, they share romantic moments as they develop their feelings for each other. The Stolen Princess Ruslan and Ludmila Full Movie Download Hindi Dubbed Unfortunately, much to Ruslan’s surprise and horror, Meelah was kidnapped via a tornado by Shernomore, He tries to pursue Meelah, but fails to do so and knocks himself unconscious. When he gained consciousness, he is confronted by the King, who mistakenly accuses him of harming the princess. He tries to tell the truth, but none of them believed him. Realizing Shernomore is real, he consults Lester and they set off to the cave where a wise cat lives.

The two asks for help on where to find Meelah and reveals to them a magic vortex where they discover a magical place and gives them a pea pod as a “gift”. The Stolen Princess Ruslan and Ludmila Hindi Dubbed 720p HD With English Subtitles WEB-DL When they reached the cliff, a hamster suddenly steals the pod and they pursue it. But they realized that they are supposed to give it to him and unlocks a dinosaur-like bridge.

Meanwhile, at Shernomore’s castle, Meelah awakens at a bed and she tries to escape using a hat that makes the user invisible. Despite Shernomore casting a spell that makes all of the desserts there alive, she manages to defeat these and discovers the other ladies who are victims of Shernomore’s evil sorcery.

About The Stolen Princess Ruslan and Ludmila 2018 Dual Audio Movie:

The Stolen Princess is a 2018 Ukrainian 3D animated fantasy film directed by Oleg Malamuzh and based on the fairy tale Ruslan and Ludmila by Russian poet Aleksandr Pushkin. The film premiere in Ukraine took place on March 7, 2018.

The film tells about a wandering artist Ruslan who saves princess Mila kidnapped by evil sorcerer Chornomor.

MKV File Details

MKV File Details

General
Format : Matroska
Format version : Version 4 / Version 2
File size : 895 MiB
Duration : 1 h 28 min
Overall bit rate : 1 419 kb/s

Video
ID : 1
Format : AVC – The Stolen Princess Ruslan and Ludmila English Subtitles 2018
Format/Info : Advanced Video Codec
Format profile : [email protected]
Format settings : CABAC / 4 Ref Frames
Format settings, CABAC : Yes
Format settings, RefFrames : 4 frames
Codec ID : V_MPEG4/ISO/AVC
Duration : 1 h 28 min
Bit rate : 1 200 kb/s
Width : 1 280 pixels
Height : 532 pixels
Display aspect ratio : 2.40:1
Frame rate mode : Constant
Frame rate : 25.000 FPS
Color space : YUV
Chroma subsampling : 4:2:0
Bit depth : 8 bits
Scan type : Progressive
Bits/(Pixel*Frame) : 0.070
Stream size : 732 MiB (82%)
Writing library : x264 core 155 r2901 7d0ff22
Default : Yes
Forced : No

Audio #1 – The Stolen Princess Ruslan and Ludmila 2018 Hindi Movie
ID : 2
Format : AAC
Format/Info : Advanced Audio Codec
Format profile : LC
Codec ID : A_AAC-2
Duration : 1 h 28 min
Bit rate : 128 kb/s
Channel(s) : 2 channels
Channel positions : Front: L R
Sampling rate : 48.0 kHz
Frame rate : 46.875 FPS (1024 SPF)
Compression mode : Lossy
Stream size : 80.4 MiB (9%)
Language : Hindi
Default : Yes
Forced : No

Audio #2
ID : 3
Format : AAC
Format/Info : Advanced Audio Codec
Format profile : LC
Codec ID : A_AAC-2
Duration : 1 h 28 min
Bit rate : 128 kb/s
Channel(s) : 2 channels
Channel positions : Front: L R
Sampling rate : 48.0 kHz
Frame rate : 46.875 FPS (1024 SPF)
Compression mode : Lossy
Stream size : 80.5 MiB (9%)
Language : English
Default : No
Forced : No

Text – The Stolen Princess Ruslan and Ludmila 2018 Dual Audio 720p HD
ID : 4
Format : UTF-8
Codec ID : S_TEXT/UTF8
Codec ID/Info : UTF-8 Plain Text
Duration : 1 h 23 min
Bit rate : 61 b/s
Count of elements : 1510
Stream size : 37.9 KiB (0%)
Language : English
Default : Yes
Forced : No

Images, Screenshots Of Full Episodes

Some Images Of The Stolen Princess Ruslan and Ludmila Hindi + English Full Movie 720p WEB-DL x264 + ESubs

The Stolen Princess Ruslan and Ludmila Dual Audio Hindi Dubbed 720p, English Subtitles

The Stolen Princess Ruslan and Ludmila Dual Audio Hindi Dubbed 720p, English Subtitles

The Stolen Princess Ruslan and Ludmila Dual Audio Hindi Dubbed 720p, English Subtitles

The Stolen Princess Ruslan and Ludmila Dual Audio Hindi Dubbed 720p, English Subtitles

The Stolen Princess Ruslan and Ludmila Dual Audio Hindi Dubbed 720p, English Subtitles

The Stolen Princess Ruslan and Ludmila Dual Audio Hindi Dubbed 720p, English Subtitles

Watch The Full HD 720p, 1080p Movie Trailers

Watch The Stolen Princess Ruslan and Ludmila 2018 Full HD Movie Trailer

Direct Download Links Of The Stolen Princess Ruslan and Ludmila Full Movie In Hindi + English 720p HD Given Below

Free Download Direct Links HD

Direct Links For Premium Users

If you are the member of this site then enter your login details and Enjoy Direct Links

Leave a Reply

Your email address will not be published. Required fields are marked *

Check Also

The Punisher Season 2 – Complete

The Punisher Season 2 All Episodes Free Download In 480p + 720p + 720p HEVC + 1080p Full H…