Manikarnika The Queen of Jhansi Full Movie Free Download In Hindi PreDVDRip Quality Encoded In x264 MKV.

Free Download Manikarnika The Queen of Jhansi Full Movie In Hindi

Details Of Full Length Free Videos

Title: Manikarnika The Queen of Jhansi (2019)
Genres: Action | Biography | Drama | History
Country: India
Language: Hindi
Release Date: 25 January 2019
Quality: PreDVDRip x264
Audio: AAC
Format: MKV
Size: 772-MB

IMDb

Storyline

Story of Rani Lakshmibai, one of the leading figures of the Indian Rebellion of 1857 and her resistance to the British Raj.

Manikarnika: The Queen of Jhansi is a 2019 Indian epic biographical period drama film based on the life of the Rani Laxmibai of Jhansi. It is directed by Krish and Kangana Ranaut and produced by Zee Studios in association with Kamal Jain and Nishant Pitti. The film stars Kangana Ranaut in the title role.

A special screening of the film was organized by Zee Entertainment for Ram Nath Kovind, the President of India, at Rashtrapati Bhavan, Cultural Centre on 18 January in presence of Kangana Ranaut and her team before release of the film on 25 January 2019. After watching the film the President felicitated the artists and crew of the film.

The film released on 3700 screens worldwide in 50 countries worldwide in Hindi, Tamil and Telugu on January 25th. The film was received well by the critics and the audiences.

Manikarnika The Queen of Jhansi Cast

  • Kangana Ranaut as Rani Laxmibai (Manikarnika aka Manu)
  • Atul Kulkarni as Tatya Tope
  • Jisshu Sengupta as Gangadhar Rao
  • Richard Keep as General Hugh Rose
  • Suresh Oberoi as Bajirao II
  • Danny Denzongpa as Ghulam Ghaus Khan
  • Vaibhav Tatwawaadi as Puran Singh
  • Ankita Lokhande as Jhalkaribai
  • Yash Tonk as Rao Tula Ram
  • R. Bhakti Klein as Lord Canning
  • Mishti as Kashibai
  • Unnati Davara as Mundar
  • Mohammed Zeeshan Ayyub as Sadashiv
  • Rajiv Kachroo as Gul Mohamad
  • Nihar Pandya as Pran Sukh Yadav
  • Taher Shabbir as Sangram Singh
  • Naveen Manar as TBA
  • Kulbhushan Kharbanda as TBA
  • Manish Wadhwa as Moropant
  • Nalneesh Neel as Teer Singh

MEDIA INFO

MEDIA INFO

General
Complete name : Manikarnika The Queen of Jhansi 2019 Hindi PRE-DVDRip x264 AAC { TaRa }.mkv
Format : Matroska
Format version : Version 4
File size : 772 MiB
Duration : 2 h 15 min
Overall bit rate : 798 kb/s
===================================================================
Video
ID : 1
Format : MPEG-4 Visual
Format profile : Advanced Simple@L5
Format settings : BVOP2
Format settings, BVOP : 2
Format settings, QPel : No
Format settings, GMC : No warppoints
Format settings, Matrix : Default (H.263)
Codec ID : V_MS/VFW/FOURCC / XVID
Codec ID/Hint : XviD
Duration : 2 h 15 min
Bit rate : 670 kb/s
Width : 608 pixels
Height : 256 pixels
Display aspect ratio : 2.40:1
Frame rate mode : Constant
Frame rate : 25.000 FPS
Color space : YUV
Chroma subsampling : 4:2:0
Bit depth : 8 bits
Scan type : Progressive
Compression mode : Lossy
Bits/(Pixel*Frame) : 0.172
Stream size : 648 MiB (84%)
Writing library : XviD 67
Language : Hindi
Default : Yes
Forced : No
===================================================================
Audio
ID : 2
Format : AAC LC
Format/Info : Advanced Audio Codec Low Complexity
Codec ID : A_AAC-2
Duration : 2 h 15 min
Bit rate : 126 kb/s
Channel(s) : 2 channels
Channel layout : L R
Sampling rate : 44.1 kHz
Frame rate : 43.066 FPS (1024 SPF)
Compression mode : Lossy
Stream size : 122 MiB (16%)
Language : Hindi
Default : Yes
Forced : No

Images, Screenshots Of Full Episodes

Screenshots/Images Of Manikarnika The Queen of Jhansi Hindi Movie PreDVDRip x264

Free Download Manikarnika The Queen of Jhansi Full Movie In Hindi

Free Download Manikarnika The Queen of Jhansi Full Movie In Hindi

Free Download Manikarnika The Queen of Jhansi Full Movie In Hindi

Free Download Manikarnika The Queen of Jhansi Full Movie In Hindi

Free Download Manikarnika The Queen of Jhansi Full Movie In Hindi

Free Download Manikarnika The Queen of Jhansi Full Movie In Hindi

Free Download Manikarnika The Queen of Jhansi Full Movie In Hindi

Watch The Full HD 720p, 1080p Movie Trailers

Watch Manikarnika The Queen of Jhansi 2019 Trailer

Free Download Manikarnika The Queen of Jhansi Full Movie In Hindi PreDVDRip From Below

Free Download Direct Links HD

Direct Links For Premium Users

If you are the member of this site then enter your login details and Enjoy Direct Links

Leave a Reply

Your email address will not be published. Required fields are marked *

Check Also

Damaged Season 1 – Complete [Updated]

Damaged Web Series Download All Episodes Free In Hindi 720p HD WEB-DL Quality Encoded In x…