Genius 2018 Hindi Movie Free Download Full Length In 720p PreDVDRip Quality Encoded In x264.

Genius 2018 Full Hindi Movie Free Download 720p PreDVDRip x264

Details Of Full Length Free Videos

Title: Genius 2018 Movie Download
Genres: Action | Thriller
Country: India
Language: Hindi
Release Date: 24 August 2018
Quality: 720p PRE-DVDRip x264
Format: MKV
Size: 1.28-GB

IMDb

Storyline

Genius Movie Free Download In 720p PreDVD An orphan, with a brilliant mind, joins RAW and is burdened by the killing of his entire team. Until he doesn’t avenge their death, he can’t live in peace with his love. So, he hatches a genius plan.

Genius is an Indian action thriller film directed by Anil Sharma. It marks the debut of his son Utkarsh Sharma as a male lead, who also featured as a child actor in Sharma’s 2001 blockbuster film Gadar: Ek Prem Katha. Nawazuddin Siddiqui and Mithun Chakraborty are in supporting roles in the film.

Cast

  • Utkarsh Sharma as Vasudev Shastri aka Genius
  • Ishitha Chauhan as Nandini Chauhan
  • Nawazuddin Siddiqui as Mr Samar Khan
  • Mithun Chakraborty as Devraj Mathur
  • Joy Badlani as CBI Officer Satya Deshpande
  • Rudranil Ghosh as Rajpan Singh
  • Sabyasachi Chakraborty as Inspector Shinde
  • Bharat Kaul as Aslam Bhai
  • Shataf Figar as Ali Bhai
  • Ashish Vidyarthi as Raj Gopal
  • Atul Kulkarni as Ram Shankar
  • Sayaji Shinde as Mr. Mathur
  • Biswajit Chakraborty as Sanjay Shrivastava
  • P. Ravishankar as Munna Bhai
  • Ayesha Jhulka
  • Zakir Hussain
  • Malati Chahar
  • Rajiv Kachroo
  • Abhimanyu Singh
  • K. K. Raina
  • Dev Gill
  • Amit Gupta
  • Gaurav Shinde
  • Parul Sharma

Video File Details

Video File Details

General
Format : Matroska
Format version : Version 4 / Version 2
File size : 1.28 GiB
Duration : 2 h 28 min
Overall bit rate : 1 236 kb/s

Video
ID : 1
Format : AVC
Format/Info : Advanced Video Codec
Format profile : [email protected]
Format settings : CABAC / 4 Ref Frames
Format settings, CABAC : Yes
Format settings, RefFrames : 4 frames
Codec ID : V_MPEG4/ISO/AVC
Duration : 2 h 28 min
Bit rate : 1 100 kb/s
Width : 1 280 pixels
Height : 558 pixels
Display aspect ratio : 2.25:1
Frame rate mode : Constant
Frame rate : 25.000 FPS
Color space : YUV
Chroma subsampling : 4:2:0
Bit depth : 8 bits
Scan type : Progressive
Bits/(Pixel*Frame) : 0.062
Stream size : 1.14 GiB (89%)
Writing library : x264 core 155 r2901 7d0ff22
Default : Yes
Forced : No

Audio
ID : 2
Format : AAC
Format/Info : Advanced Audio Codec
Format profile : LC
Codec ID : A_AAC-2
Duration : 2 h 28 min
Bit rate : 129 kb/s
Channel(s) : 2 channels
Channel positions : Front: L R
Sampling rate : 48.0 kHz
Frame rate : 46.875 FPS (1024 SPF)
Compression mode : Lossy
Stream size : 137 MiB (10%)
Language : Hindi
Default : Yes
Forced : No

Images, Screenshots Of Full Episodes

Some Images Of Genius 2018 Full Movie In 720p PRE-DVDRip

Genius 2018 Full Hindi Movie Free Download 720p PreDVDRip x264

Genius 2018 Full Hindi Movie Free Download 720p PreDVDRip x264

Genius 2018 Full Hindi Movie Free Download 720p PreDVDRip x264

Genius 2018 Full Hindi Movie Free Download 720p PreDVDRip x264

Genius 2018 Full Hindi Movie Free Download 720p PreDVDRip x264

Genius 2018 Full Hindi Movie Free Download 720p PreDVDRip x264

Watch The Full HD 720p, 1080p Movie Trailers

Watch Genius 2018 Full Movie Trailer

Direct Download Links Of Genius 2018 Movie In 720p PRE_DVDRip Given Below

Free Download Direct Links HD

Direct Links For Premium Users

If you are the member of this site then enter your login details and Enjoy Direct Links

Leave a Reply

Your email address will not be published. Required fields are marked *

Check Also

The Punisher Season 2 – Complete

The Punisher Season 2 All Episodes Free Download In 480p + 720p + 720p HEVC + 1080p Full H…